1. #1

    Predeterminado The Hangover II (Que paso ayer?) [BRRip][1080p][Latino]

    The Hangover II
    (¿Que paso ayer?)



    Sinopsis:
    Phil (Bradley Cooper), Stu (Ed Helms), Alan (Zach Galifianakis) y Doug (Justin Bartha) viajan a Bangkok, Tailandia, para asistir a la boda de Stu. Todos ellos recuerdan lo que ocurrió en la despedida de soltero de Doug en Las Vegas dos años atrás, y Stu no tiene ningún interés en que aquel desorden pre-nupcial vuelva a suceder, decidiendo no dejar absolutamente nada al azar.
    Sin embargo las cosas no salen como Stu pensaba, dos noches antes en la playa cede y empieza la fiesta. A la mañana siguiente se levantarán en un roñoso hotel sin recordar aboslutamente nada. Pronto aparecerán las primeras secuelas de la noche, Alan se ha rapado la cabeza, Stu se ha hecho un tatuaje en la cara... y, además, un mono aparece en la habitación. Se encontrarán con un viejo conocido, Leslie (Ken Jeong), y tratarán de averirguar qué pasó durante esa noche.



    Ficha Tecnica:
    Tamaño de archivo: 1.31GB (2 partes 700MB aprox.)
    Audio:Latino
    Formato de video: MKV
    Resolucion de video: 1080p

    Format : Matroska
    Format version : Version 2
    File size : 1.31 GiB
    Duration : 1h 41mn
    Overall bit rate : 1 847 Kbps
    Movie name : The Hangover II
    Encoded date : UTC 2011-11-26 01:05:34
    Writing application : mkvmerge v5.0.1 ('Es ist Sommer') built on Oct 9 2011 11:55:43
    Writing library : libebml v1.2.2 + libmatroska v1.3.0


    Video
    ID : 1
    Format : AVC
    Format/Info : Advanced Video Codec
    Format profile : [email protected]
    Format settings, CABAC : Yes
    Format settings, ReFrames : 8 frames
    Muxing mode : Header stripping
    Codec ID : V_MPEG4/ISO/AVC
    Duration : 1h 41mn
    Bit rate : 1 568 Kbps
    Width : 1 920 pixels
    Height : 800 pixels
    Display aspect ratio : 16:9
    Original display aspect ratio : 2.40:1
    Frame rate : 23.976 fps
    Color space : YUV
    Chroma subsampling : 4:2:0
    Bit depth : 8 bits
    Scan type : Progressive
    Bits/(Pixel*Frame) : 0.043
    Stream size : 1.10 GiB (84%)
    Title : VID
    Writing library : x264 core 116 r2074 2641b9e
    Language : Latin


    Audio
    ID : 2
    Format : MPEG Audio
    Format version : Version 1
    Format profile : Layer 3
    Mode : Joint stereo
    Muxing mode : Header stripping
    Codec ID : A_MPEG/L3
    Codec ID/Hint : MP3
    Duration : 1h 41mn
    Bit rate mode : Constant
    Bit rate : 256 Kbps
    Channel(s) : 2 channels
    Sampling rate : 48.0 KHz
    Compression mode : Lossy
    Stream size : 186 MiB (14%)
    Title : Lat
    Language : Latin



    Previews:










    Descarga:


    Pronto mas peliculas en 1080p FULLHD y en Latino...




    NOTA: Recomiendo usar el Media Player Classic, lo consigues bajando el K-lite Megapack

    [COLOR=#fafafa !important]

    [/COLOR]


    [COLOR=#fafafa !important]

    [/COLOR]

  2. #2

    jaujaua genial
    se agradece cumpita

  3. #3
    usuaria2008

    Links Caídos!

Etiquetas para este Tema